<?xml version="1.0" standalone="no"?>
<!DOCTYPE svg PUBLIC "-//W3C//DTD SVG 1.1//EN" "http://www.w3.org/Graphics/SVG/1.1/DTD/svg11.dtd" >
<svg xmlns="http://www.w3.org/2000/svg">
<metadata>Generated by IcoMoon</metadata>
<defs>
<font id="icomoon" horiz-adv-x="1024">
<font-face units-per-em="1024" ascent="960" descent="-64" />
<missing-glyph horiz-adv-x="1024" />
<glyph unicode="&#x20;" horiz-adv-x="512" d="" />
<glyph unicode="&#xe900;" glyph-name="facebook" d="M570.918 392.977h132.343l20.779 148.201h-153.148v80.998c0 61.565 18.249 116.158 70.49 116.158h83.951v129.331c-14.75 2.196-45.943 7.002-104.892 7.002-123.085 0-195.244-71.653-195.244-234.896v-98.593h-126.531v-148.201h126.531v-407.339c25.060-4.151 50.438-6.972 76.495-6.972 23.552 0 46.537 2.372 69.227 5.756v408.555z" />
<glyph unicode="&#xe901;" glyph-name="youtube" d="M755.2 572.803c-6.4 22.4-22.4 38.4-44.8 44.8-38.4 9.6-201.6 9.6-201.6 9.6s-160 0-201.6-9.6c-22.4-6.4-38.4-22.4-44.8-44.8-6.4-41.6-6.4-124.8-6.4-124.8s0-83.2 9.6-124.8c6.4-22.4 22.4-38.4 44.8-44.8 38.4-9.6 201.6-9.6 201.6-9.6s160 0 201.6 9.6c22.4 6.4 38.4 22.4 44.8 44.8 9.6 41.6 9.6 124.8 9.6 124.8s0 83.2-12.8 124.8zM460.8 371.203v153.6l134.4-76.8-134.4-76.8z" />
<glyph unicode="&#xe902;" glyph-name="twitter" d="M768 608c-19.2-9.6-38.4-12.8-60.8-16 22.4 12.8 38.4 32 44.8 57.6-19.2-12.8-41.6-19.2-67.2-25.6-19.2 19.2-48 32-76.8 32-67.2 0-118.4-64-102.4-128-86.4 3.2-163.2 44.8-217.6 108.8-28.8-48-12.8-108.8 32-140.8-16 0-32 6.4-48 12.8 0-48 35.2-92.8 83.2-105.6-16-3.2-32-6.4-48-3.2 12.8-41.6 51.2-73.6 99.2-73.6-38.4-28.8-96-44.8-150.4-38.4 48-28.8 102.4-48 160-48 195.2 0 304 163.2 297.6 313.6 22.4 12.8 41.6 32 54.4 54.4z" />
<glyph unicode="&#xe903;" glyph-name="telegram" d="M137.881 465.574c218.528 90.268 364.246 149.777 437.159 178.529 208.175 82.093 251.435 96.353 279.629 96.829 6.199 0.099 20.066-1.359 29.047-8.268 7.582-5.834 9.668-13.716 10.667-19.247s2.244-18.132 1.254-27.978c-11.281-112.379-60.092-385.093-84.928-510.959-10.509-53.257-31.198-71.117-51.23-72.862-43.529-3.802-76.587 27.273-118.75 53.478-65.975 41.003-103.249 66.526-167.287 106.539-74.011 46.238-26.035 71.654 16.145 113.186 11.038 10.871 202.842 176.273 206.554 191.277 0.461 1.876 0.892 8.872-3.49 12.565s-10.85 2.431-15.522 1.426c-6.613-1.424-112.013-67.472-316.19-198.143-29.917-19.477-57.015-28.966-81.293-28.467-26.765 0.546-78.251 14.345-116.525 26.142-46.945 14.468-84.256 22.118-81.007 46.686 1.693 12.8 20.281 25.89 55.767 39.266z" />
<glyph unicode="&#xe904;" glyph-name="instagram" d="M512.006 665.594c70.4 0 80 0 108.8 0 25.6 0 38.4-6.4 48-9.6 12.8-6.4 22.4-9.6 32-19.2s16-19.2 19.2-32c3.2-9.6 6.4-22.4 9.6-48 0-28.8 0-35.2 0-108.8s0-80 0-108.8c0-25.6-6.4-38.4-9.6-48-6.4-12.8-9.6-22.4-19.2-32s-19.2-16-32-19.2c-9.6-3.2-22.4-6.4-48-9.6-28.8 0-35.2 0-108.8 0s-80 0-108.8 0c-25.6 0-38.4 6.4-48 9.6-12.8 6.4-22.4 9.6-32 19.2s-16 19.2-19.2 32c-3.2 9.6-6.4 22.4-9.6 48 0 28.8 0 35.2 0 108.8s0 80 0 108.8c0 25.6 6.4 38.4 9.6 48 6.4 12.8 9.6 22.4 19.2 32s19.2 16 32 19.2c9.6 3.2 22.4 6.4 48 9.6 28.8 0 38.4 0 108.8 0zM512.006 713.594c-73.6 0-80 0-108.8 0s-48-6.4-64-12.8c-16-6.4-32-16-48-32s-22.4-28.8-32-48c-6.4-16-9.6-35.2-12.8-64 0-28.8 0-38.4 0-108.8 0-73.6 0-80 0-108.8s6.4-48 12.8-64c6.4-16 16-32 32-48s28.8-22.4 48-32c16-6.4 35.2-9.6 64-12.8 28.8 0 38.4 0 108.8 0s80 0 108.8 0c28.8 0 48 6.4 64 12.8s32 16 48 32c16 16 22.4 28.8 32 48 6.4 16 9.6 35.2 12.8 64 0 28.8 0 38.4 0 108.8s0 80 0 108.8c0 28.8-6.4 48-12.8 64s-16 32-32 48c-16 16-28.8 22.4-48 32-16 6.4-35.2 9.6-64 12.8-28.8 0-35.2 0-108.8 0zM512.006 585.594c-76.8 0-137.6-60.8-137.6-137.6s60.8-137.6 137.6-137.6c76.8 0 137.6 60.8 137.6 137.6s-60.8 137.6-137.6 137.6zM512.006 358.394c-48 0-89.6 38.4-89.6 89.6 0 48 38.4 89.6 89.6 89.6 48 0 89.6-38.4 89.6-89.6 0-48-41.6-89.6-89.6-89.6zM652.806 556.794c17.674 0 32 14.326 32 32s-14.326 32-32 32c-17.674 0-32-14.326-32-32s14.326-32 32-32z" />
<glyph unicode="&#xe905;" glyph-name="phone" d="M195.845 800c-21.68 0-43.821-8.786-66.298-30.912l-0.242-0.238-0.247-0.233c-19.403-18.305-32.836-38.315-41.248-59.692l-0.066-0.169c-8.628-21.57-13.072-45.241-13.072-70.461 0-39.37 9.074-81.635 28.193-127.059 19.384-45.622 46.254-92.163 80.078-139.197 34.385-47.219 72.956-92.438 115.743-135.651 43.224-42.797 88.472-81.395 136.172-116.237 46.89-34.138 93.856-61.040 140.464-80.899 45.853-19.536 88.090-28.586 126.55-28.586 25.805 0 49.341 4.771 70.893 13.754l0.173 0.070c21.11 8.653 40.31 22.301 58.397 42.227 10.138 11.184 17.805 23.024 23.789 35.693 5.267 11.155 7.603 22.282 7.603 32.845 0 6.87-1.373 13.328-4.314 20.829-2.003 4.342-5.446 8.774-12.195 13.446l-0.314 0.218-140.95 100.074c-9.363 6.349-17.091 10.592-23.731 13.309-6.070 2.483-10.493 3.165-13.91 3.165-4.106 0-8.227-0.992-13.654-4.294l-0.902-0.55-0.934-0.486c-5.891-3.075-13.523-8.778-22.896-18.15l-0.147-0.15-32.278-31.85c-0.029-0.029-0.054-0.054-0.083-0.083-10.355-10.317-23.888-16.544-40.038-16.544-6.317 0-13.811 0.71-21.901 3.744l-0.691 0.259-0.678 0.291c-1.76 0.755-3.395 1.504-4.554 2.035l-0.336 0.154c-1.382 0.637-1.853 0.838-2.070 0.928l-1.581 0.63-1.507 0.797c-17.299 9.158-37.603 23.533-60.736 43.107l-0.042 0.035c-23.446 19.907-46.246 41.411-69.546 64.275l-0.214 0.211-0.211 0.218c-22.758 23.197-43.696 46.32-63.222 68.883l-0.234 0.269c-19.339 22.854-34.15 43.107-43.342 59.962l-1.364 2.499-0.897 2.691c0.002-0.006-0.104 0.288-0.664 1.61-0.047 0.112-0.097 0.23-0.15 0.355-0.532 1.254-1.372 3.235-2.208 5.466l-0.64 1.706-0.442 1.77c-1.379 5.514-2.235 11.13-2.235 17.574 0 14.474 4.932 28.288 15.939 39.43l32.688 33.968c8.787 8.79 14.902 16.762 18.662 23.414l0.253 0.448 0.269 0.442c3.235 5.315 4.294 9.859 4.294 13.658 0 2.739-0.794 7.37-3.386 13.421l-0.102 0.243-0.102 0.246c-2.704 6.608-6.896 14.227-13.418 23.284l-0.131 0.181-99.198 139.821c-4.162 6.012-9.345 10.129-15.685 13.054l-0.22 0.101-0.218 0.105c-6.072 2.915-13.247 4.529-20.713 4.529zM84.894 814.938c32.083 31.484 69.589 49.062 110.951 49.062 16.349 0 32.986-3.472 48.188-10.726 15.707-7.292 30.023-18.455 41.154-34.467l98.828-139.298c8.749-12.162 15.594-24.062 20.547-36.11 5.030-11.808 8.454-25.005 8.454-38.384 0-16.506-4.81-32.285-13.35-46.48-7.264-12.736-17.187-25.014-28.646-36.509l-29.389-30.547c0.298-0.701 0.698-1.651 1.13-2.752 6.384-11.197 17.693-26.954 34.838-47.229 18.778-21.696 38.694-43.677 60.182-65.59 22.694-22.269 44.189-42.499 65.891-60.928 20.525-17.366 36.518-28.432 48.141-34.752 0.934-0.403 1.802-0.797 2.509-1.12l29.347 28.96c0.026 0.026 0.054 0.051 0.080 0.080 11.667 11.654 24.176 21.93 37.533 29.062 13.952 8.31 29.165 13.085 46.029 13.085 12.797 0 25.44-2.733 38.144-7.93 12.074-4.941 23.888-11.734 35.744-19.795l0.266-0.182 141.347-100.352c15.13-10.512 26.989-23.824 34.374-40.614l0.221-0.499 0.202-0.502c5.437-13.59 9.117-28.317 9.117-45.165 0-20.16-4.493-40.608-13.731-60.173-8.525-18.048-19.629-35.222-34.24-51.344-23.699-26.122-50.56-45.75-81.459-58.432-29.622-12.33-61.526-18.64-95.424-18.64-48.579 0-99.357 11.434-151.638 33.709-51.517 21.952-102.678 51.366-153.062 88.048l-0.042 0.029c-50.384 36.803-98.106 77.526-143.589 122.573l-0.22 0.218c-45.039 45.475-85.773 93.21-122.172 143.203l-0.108 0.15c-36.113 50.205-65.537 100.902-87.101 151.667l-0.039 0.093c-21.827 51.84-33.228 102.573-33.228 151.939 0 32.774 5.786 64.54 17.615 94.147 12.032 30.544 30.932 58.213 56.607 82.497zM565.344 682.672c0 17.673 14.326 32 32 32 48.71 0 92.864-30.376 122.842-62.682 16.822-18.031 31.034-38.236 41.19-57.993 9.834-19.126 17.302-40.611 17.302-60.659 0-17.674-14.33-32-32-32-17.674 0-32 14.326-32 32 0 5.555-2.56 16.496-10.221 31.395-7.328 14.256-18.067 29.667-31.094 43.626l-0.067 0.070v0.003c-24.637 26.56-53.002 42.24-75.952 42.24-17.674 0-32 14.327-32 32zM565.344 832c0 17.673 14.326 32 32 32 182.794 0 330.666-147.874 330.666-330.666 0-17.674-14.326-32-32-32s-32 14.326-32 32c0 147.446-119.219 266.666-266.666 266.666-17.674 0-32 14.327-32 32z" />
<glyph unicode="&#xe906;" glyph-name="email" d="M165.769 736.556c-29.012-26.939-48.441-70.65-48.441-139.218v-298.666c0-68.566 19.43-112.278 48.441-139.216 29.441-27.338 73.797-42.118 132.892-42.118h426.667c59.094 0 103.453 14.781 132.893 42.118 29.011 26.938 48.442 70.65 48.442 139.216v298.666c0 68.568-19.43 112.279-48.442 139.218-29.44 27.338-73.798 42.116-132.893 42.116h-426.667c-59.095 0-103.452-14.779-132.892-42.116zM122.22 783.455c45.226 41.996 107.536 59.217 176.441 59.217h426.667c68.906 0 131.216-17.222 176.442-59.217 45.654-42.394 68.893-105.35 68.893-186.117v-298.666c0-80.765-23.238-143.722-68.893-186.115-45.226-41.997-107.536-59.219-176.442-59.219h-426.667c-68.905 0-131.215 17.222-176.441 59.219-45.655 42.394-68.892 105.35-68.892 186.115v298.666c0 80.767 23.237 143.723 68.892 186.117zM750.326 595.968c11.030-13.808 8.778-33.942-5.030-44.973l-133.587-106.698c-55.613-44.275-144.25-44.275-199.862 0l-0.080 0.061-133.119 106.669c-13.792 11.050-16.013 31.19-4.963 44.982s31.19 16.013 44.982 4.96l133.042-106.602c0.013-0.010 0.022-0.019 0.035-0.029 32.282-25.667 87.811-25.664 120.086 0.016 0.003 0.003-0.006-0.006 0 0l133.523 106.646c13.808 11.030 33.946 8.778 44.973-5.034z" />
<glyph unicode="&#xe907;" glyph-name="message-text-02" d="M204.8 821.029c-36.356 0-65.829-29.473-65.829-65.829v-400.695c0-36.356 29.473-65.829 65.829-65.829h80.139c20.198 0 36.571-16.373 36.571-36.571v-125.414l151.274 151.274c6.857 6.857 16.161 10.712 25.86 10.712h320.556c36.356 0 65.829 29.473 65.829 65.829v400.695c0 36.356-29.473 65.829-65.829 65.829h-614.4zM65.828 755.2c0 76.752 62.219 138.971 138.971 138.971h614.4c76.752 0 138.971-62.22 138.971-138.971v-400.695c0-76.752-62.219-138.971-138.971-138.971h-305.408l-202.993-202.993c-10.459-10.459-26.19-13.59-39.855-7.929s-22.576 18.995-22.576 33.788v177.134h-43.568c-76.752 0-138.971 62.219-138.971 138.971v400.695zM270.628 652.8c0 20.198 16.373 36.571 36.571 36.571h358.4c20.198 0 36.571-16.374 36.571-36.571s-16.373-36.571-36.571-36.571h-358.4c-20.198 0-36.571 16.373-36.571 36.571zM270.628 448c0 20.198 16.373 36.571 36.571 36.571h204.8c20.198 0 36.571-16.373 36.571-36.571s-16.373-36.571-36.571-36.571h-204.8c-20.198 0-36.571 16.373-36.571 36.571z" />
<glyph unicode="&#xe908;" glyph-name="favourite" d="M168.229 821.029c0 40.396 32.747 73.143 73.143 73.143h541.257c40.397 0 73.143-32.747 73.143-73.143v-743.589c0-46.512-54.246-71.918-89.977-42.141l-253.795 211.496-253.795-211.496c-35.73-29.776-89.976-4.367-89.976 42.141v743.589zM782.629 821.029h-541.257v-704.549l270.628 225.525 270.629-225.525v704.549z" />
<glyph unicode="&#xe909;" glyph-name="search" d="M488.108 769.829c164.546 0 297.933-133.39 297.933-297.936 0-83.313-34.194-158.64-89.318-212.707-0.066-0.066-0.132-0.132-0.197-0.197-53.731-52.601-127.287-85.029-208.417-85.029-164.546 0-297.936 133.391-297.936 297.933 0 164.547 133.39 297.936 297.936 297.936zM773.277 234.441c53.639 64.347 85.906 147.131 85.906 237.451 0 204.942-166.137 371.079-371.076 371.079-204.942 0-371.079-166.137-371.079-371.079 0-204.939 166.137-371.076 371.079-371.076 88.269 0 169.344 30.819 233.040 82.289l123.824-119.79c14.515-14.043 37.669-13.659 51.712 0.856s13.663 37.669-0.856 51.712l-122.551 118.557z" />
<glyph unicode="&#xe90a;" glyph-name="Frame" d="M337.069 750.936v-605.867h349.866v605.867h-349.866zM260.268 757.336c0 38.881 31.519 70.4 70.401 70.4h362.666c38.88 0 70.4-31.519 70.4-70.4v-618.667c0-38.88-31.52-70.4-70.4-70.4h-362.666c-38.882 0-70.401 31.52-70.401 70.4v618.667zM430.931 746.667c0 21.208 17.194 38.4 38.4 38.4h85.334c21.21 0 38.4-17.192 38.4-38.4s-17.19-38.4-38.4-38.4h-85.334c-21.206 0-38.4 17.192-38.4 38.4zM512 273.069c21.206 0 38.4-17.194 38.4-38.4v-0.426c0-21.206-17.194-38.4-38.4-38.4-21.21 0-38.4 17.194-38.4 38.4v0.426c0 21.206 17.19 38.4 38.4 38.4z" />
<glyph unicode="&#xe90b;" glyph-name="smiley-happy" d="M512 819.2c-205.008 0-371.2-166.192-371.2-371.2s166.192-371.2 371.2-371.2c205.008 0 371.2 166.192 371.2 371.2s-166.192 371.2-371.2 371.2zM64 448c0 247.424 200.576 448 448 448s448-200.576 448-448c0-247.424-200.576-448-448-448s-448 200.576-448 448zM350.72 570.88c0 21.206 17.194 38.4 38.4 38.4h4.080c21.206 0 38.4-17.194 38.4-38.4v-3.28c0-21.206-17.194-38.4-38.4-38.4h-4.080c-21.206 0-38.4 17.194-38.4 38.4v3.28zM596.48 570.88c0 21.206 17.194 38.4 38.4 38.4h3.626c21.21 0 38.4-17.194 38.4-38.4v-3.28c0-21.206-17.19-38.4-38.4-38.4h-3.626c-21.206 0-38.4 17.194-38.4 38.4v3.28zM349.792 356.099c18.032 11.162 41.699 5.594 52.861-12.438 23.344-37.712 63.834-62.058 109.347-62.058s86.003 24.346 109.347 62.058c11.162 18.032 34.829 23.6 52.861 12.438s23.603-34.829 12.438-52.861c-36.384-58.781-100.765-98.435-174.646-98.435s-138.262 39.654-174.646 98.435c-11.165 18.032-5.594 41.699 12.438 52.861z" />
<glyph unicode="&#xe90c;" glyph-name="Group-20588" d="M512 872.229c-234.295 0-424.229-189.934-424.229-424.229 0-108.014 40.367-206.599 106.839-281.49 12.458 13.14 26.68 27.758 41.144 41.838 16.949 16.501 35.090 33.108 51.598 45.868 8.201 6.341 16.963 12.485 25.657 17.247 7.271 3.979 20.435 10.423 35.834 10.423h326.335c24.287 0 47.367-11.948 63.795-22.25 18.165-11.396 36.579-26.28 53.248-41.355 15.587-14.091 30.815-29.422 44.006-43.875 62.391 73.863 100.001 169.337 100.001 273.595 0 234.295-189.934 424.229-424.229 424.229zM772.966 113.51c-11.169 12.343-24.905 26.372-39.611 39.665-14.574 13.18-28.782 24.426-41.022 32.106-10.043 6.298-15.503 8.104-17.072 8.624-0.614 0.201-0.629 0.208-0.084 0.208h-320.665c-3.061-1.748-7.551-4.754-13.481-9.34-12.623-9.757-28.005-23.695-44.054-39.318-13.128-12.782-26.129-26.123-37.652-38.261 70.58-52.414 158.006-83.423 252.675-83.423 98.41 0 188.994 33.51 260.966 89.739zM357.232 195.478c-0.004-0.011-0.189-0.095-0.541-0.219 0.369 0.172 0.545 0.234 0.541 0.219zM0 448c0 282.77 229.23 512 512 512s512-229.23 512-512c0-282.77-229.23-512-512-512s-512 229.23-512 512zM300.458 558.789c0 114.886 96.408 206.163 211.557 206.163 115.152 0 211.555-91.277 211.555-206.163s-96.406-206.164-211.555-206.164c-115.149 0-211.557 91.279-211.557 206.164zM512.015 677.181c-69.402 0-123.783-54.663-123.783-118.392s54.382-118.393 123.783-118.393c69.402 0 123.783 54.663 123.783 118.393s-54.382 118.392-123.783 118.392z" />
<glyph unicode="&#xe90d;" glyph-name="close" d="M798.17 734.17c16.661-16.663 16.661-43.677 0-60.34l-512-512c-16.663-16.661-43.677-16.661-60.34 0s-16.662 43.678 0 60.339l512 512c16.661 16.662 43.678 16.662 60.339 0zM225.83 734.17c16.663 16.662 43.677 16.662 60.34 0l512-512c16.661-16.661 16.661-43.678 0-60.339s-43.678-16.661-60.339 0l-512 512c-16.662 16.663-16.662 43.677 0 60.34z" />
<glyph unicode="&#xe90e;" glyph-name="home" d="M519.744 812.65c-4.51 3.050-10.987 3.050-15.497 0l-354.987-240.064c-3.157-2.135-4.198-4.912-4.198-6.983v-449.293c0-17.468 15.529-35.238 39.253-35.238h148.48v268.954c0 54.246 45.6 94.605 97.28 94.605h163.84c51.682 0 97.28-40.358 97.28-94.605v-268.954h148.48c23.723 0 39.253 17.771 39.253 35.238v449.293c0 2.071-1.041 4.848-4.198 6.983l-354.987 240.064zM839.676-4.262c66.761 0 124.587 51.989 124.587 120.572v449.293c0 31.552-16.073 60.319-41.728 77.67l-354.987 240.064c-33.387 22.578-77.717 22.578-111.104 0l-354.986-240.064c-25.657-17.351-41.729-46.118-41.729-77.67v-449.293c0-68.582 57.825-120.572 124.587-120.572h655.36zM605.862 81.071v268.954c0 3.127-3.302 9.271-11.947 9.271h-163.84c-8.643 0-11.947-6.144-11.947-9.271v-268.954h187.733z" />
<glyph unicode="&#xe90f;" glyph-name="menu-burger" d="M134.089 704c0 20.198 16.374 36.571 36.571 36.571h682.668c20.198 0 36.571-16.374 36.571-36.571s-16.373-36.571-36.571-36.571h-682.668c-20.198 0-36.571 16.374-36.571 36.571zM134.089 448c0 20.198 16.374 36.571 36.571 36.571h682.668c20.198 0 36.571-16.373 36.571-36.571s-16.373-36.571-36.571-36.571h-682.668c-20.198 0-36.571 16.373-36.571 36.571zM134.089 192c0 20.198 16.374 36.571 36.571 36.571h682.668c20.198 0 36.571-16.373 36.571-36.571s-16.373-36.571-36.571-36.571h-682.668c-20.198 0-36.571 16.373-36.571 36.571z" />
<glyph unicode="&#xe910;" glyph-name="pin" horiz-adv-x="878" d="M438.857 618.667c-53.861 0-97.524-43.663-97.524-97.524 0-53.862 43.663-97.524 97.524-97.524 53.862 0 97.524 43.661 97.524 97.524 0 53.861-43.661 97.524-97.524 97.524zM243.81 521.143c0 107.722 87.326 195.048 195.048 195.048 107.72 0 195.048-87.326 195.048-195.048 0-107.72-87.328-195.048-195.048-195.048-107.722 0-195.048 87.328-195.048 195.048zM680.214 762.489c133.3-133.296 133.3-349.412 0.010-482.713 0 0 0 0 0 0l-206.88-206.877c-19.039-19.022-49.886-19.022-68.925 0l-206.932 206.882c-0.001 0 0.002-0.005 0 0-133.289 133.3-133.283 349.414 0.013 482.708 133.299 133.297 349.414 133.297 482.714 0zM749.183 210.817c171.379 171.388 171.374 449.252-0.010 620.632s-449.248 171.381-620.632 0c-171.384-171.381-171.388-449.244-0.010-620.632l206.95-206.902c57.116-57.056 149.672-57.071 206.79-0.015l206.911 206.916z" />
<glyph unicode="&#xe911;" glyph-name="calendar" d="M252.191 917.333c23.564 0 42.667-19.103 42.667-42.667v-30.476h403.806v30.476c0 23.564 19.103 42.667 42.667 42.667 23.569 0 42.667-19.103 42.667-42.667v-41.995c83.786-28.778 144.003-108.264 144.003-201.814v-438.857c0-117.823-95.511-213.333-213.333-213.333h-426.667c-117.821 0-213.333 95.511-213.333 213.333v438.857c0 90.111 55.869 167.173 134.857 198.436v45.373c0 23.564 19.102 42.667 42.667 42.667zM160.128 636.64c1.706 0.207 3.443 0.314 5.205 0.314h672.003c1.758 0 3.499-0.107 5.2-0.314-3.021 68.009-59.113 122.218-127.869 122.218h-426.667c-68.755 0-124.848-54.209-127.872-122.218zM842.667 551.951c-1.746-0.218-3.527-0.331-5.33-0.331h-672.003c-1.806 0-3.586 0.113-5.333 0.331v-359.951c0-70.69 57.308-128 128-128h426.667c70.69 0 128 57.31 128 128v359.951z" />
<glyph unicode="&#xe912;" glyph-name="x-twitter" d="M172.328 746.667l263.568-352.998-265.229-287.002h59.697l232.215 251.281 187.614-251.281h203.14l-278.404 372.847 246.878 267.153h-59.699l-213.85-231.42-172.791 231.42h-203.139zM260.116 702.625h93.321l412.097-551.918h-93.321l-412.098 551.918z" />
<glyph unicode="&#xe913;" glyph-name="copy" d="M233.018 515.806c12.469-12.523 12.424-32.785-0.101-45.257-83.344-82.97-83.135-218.018 0.101-301.623 82.973-83.345 218.020-83.136 301.625 0.102 83.409 83.038 83.482 218.044-0.051 301.572-12.497 12.497-12.497 32.759 0 45.257s32.759 12.497 45.257 0c108.467-108.471 108.54-284.075-0.051-392.188-108.395-107.908-283.962-108.553-392.135 0.102-107.911 108.395-108.555 283.964 0.101 392.137 12.524 12.467 32.786 12.425 45.255-0.102zM791.458 727.409c-87.872 87.495-229.743 87.714-316.988 0.096-87.432-87.808-87.363-229.718-0.047-317.036 12.497-12.493 12.497-32.755 0-45.252s-32.759-12.497-45.252 0c-112.365 112.363-112.296 294.72-0.051 407.446 112.435 112.916 294.831 112.281 407.497 0.096 112.913-112.435 112.282-294.83 0.094-407.495-12.467-12.523-32.73-12.565-45.252-0.094-12.523 12.467-12.565 32.73-0.098 45.252 87.497 87.872 87.714 229.741 0.098 316.986z" />
<glyph unicode="&#xe914;" glyph-name="arrow-right" horiz-adv-x="1075" d="M378.647 813.078c14.996 14.996 39.31 14.996 54.306 0l278.184-278.187c47.852-47.849 47.852-125.921 0-173.772l-278.184-278.185c-14.996-14.996-39.31-14.996-54.306 0s-14.996 39.306 0 54.303l278.188 278.19c17.859 17.853 17.859 47.302 0 65.159l-278.188 278.187c-14.996 14.996-14.996 39.309 0 54.306z" />
<glyph unicode="&#xe915;" glyph-name="eye" d="M511.942 750.919c-161.416 0-272.897-96.171-341.842-185.741-18.829-24.462-29.263-38.36-36.101-53.84-6.272-14.198-10.324-31.893-10.324-63.353s4.052-49.155 10.324-63.353c6.838-15.479 17.272-29.378 36.101-53.84 68.945-89.57 180.426-185.743 341.842-185.743s272.897 96.173 341.844 185.743c18.829 24.462 29.261 38.361 36.096 53.84 6.278 14.198 10.33 31.893 10.33 63.353s-4.051 49.155-10.33 63.353c-6.835 15.48-17.267 29.378-36.096 53.84-68.947 89.57-180.429 185.741-341.844 185.741zM109.241 612.023c75.872 98.57 207.263 215.696 402.701 215.696s326.829-117.126 402.701-215.696c0.518-0.673 1.037-1.345 1.555-2.017 16.87-21.912 32.979-42.829 43.936-67.633 11.859-26.845 16.877-55.901 16.877-94.388s-5.018-67.543-16.877-94.388c-10.957-24.804-27.066-45.719-43.936-67.633-0.518-0.672-1.037-1.344-1.555-2.016-75.872-98.573-207.264-215.699-402.701-215.699s-326.829 117.126-402.701 215.699c-0.518 0.672-1.036 1.344-1.553 2.016-16.874 21.914-32.982 42.829-43.94 67.633-11.859 26.845-16.874 55.901-16.874 94.388s5.014 67.544 16.874 94.388c10.958 24.804 27.066 45.722 43.94 67.633 0.517 0.671 1.034 1.343 1.553 2.017zM512.025 537.606c-49.485 0-89.6-40.115-89.6-89.6s40.115-89.6 89.6-89.6c49.485 0 89.6 40.115 89.6 89.6s-40.115 89.6-89.6 89.6zM345.625 448.006c0 91.9 74.5 166.4 166.4 166.4s166.401-74.5 166.401-166.4c0-91.9-74.5-166.4-166.401-166.4s-166.4 74.5-166.4 166.4z" />
<glyph unicode="&#xe916;" glyph-name="call" d="M1007.529 410.723c1.583-37.807-11.897-74.696-37.478-102.577-25.584-27.881-61.179-44.476-98.984-46.142-2.209-0.102-4.416-0.155-6.619-0.155-10.045 0.006-20.058 1.095-29.87 3.243-29.113-44.95-67.286-83.329-112.081-112.68-44.792-29.352-95.22-49.031-148.052-57.782-6.25-18.358-18.717-33.956-35.247-44.097-16.53-10.144-36.085-14.19-55.28-11.444-19.198 2.746-36.833 12.114-49.856 26.481-13.027 14.37-20.62 32.839-21.47 52.215-0.853 19.372 5.092 38.437 16.803 53.893 11.714 15.456 28.458 26.335 47.343 30.754 18.882 4.422 38.717 2.104 56.072-6.547s31.142-23.096 38.98-40.836c74.383 13.756 141.579 53.18 189.881 111.396 48.299 58.219 74.64 131.537 74.429 207.183 0 178.709-145.389 324.099-324.102 324.099-178.71 0-324.098-145.39-324.098-324.099-0.010-55.262 14.113-109.605 41.026-157.87 0.912-1.592 1.597-3.305 2.034-5.086 2.599-7.227 2.322-15.174-0.776-22.199-3.098-7.028-8.778-12.595-15.866-15.549-17.355-7.301-35.995-11.062-54.824-11.062-2.216 0-4.436 0.053-6.662 0.155-37.786 1.688-73.361 18.295-98.923 46.173s-39.026 64.757-37.439 102.546c0.638 15.071 0.282 28.517-0.066 41.519-0.324 12.241-0.662 24.902-0.106 38.115 1.659 36.898 17.532 71.723 44.293 97.181 26.761 25.46 62.335 39.576 99.271 39.393 59.312 135.703 194.819 230.785 352.137 230.785 157.321 0 292.83-95.082 352.141-230.788 36.938 0.211 72.524-13.892 99.291-39.353 26.767-25.457 42.633-60.295 44.271-97.196 0.555-13.231 0.22-25.889-0.109-38.13-0.341-13.005-0.701-26.456-0.062-41.537zM763.609 473.628c-0.016-38.549-8.884-76.577-25.92-111.154s-41.789-64.782-72.344-88.278c-30.556-23.499-66.101-39.666-103.893-47.256-37.792-7.587-76.825-6.395-114.083 3.488l-101.841-58.815c-5.139-2.966-11.041-4.344-16.964-3.956-5.921 0.388-11.593 2.523-16.3 6.135-4.709 3.612-8.239 8.54-10.147 14.159s-2.105 11.677-0.569 17.408l26.029 97.097c-43.105 46.589-67.088 107.7-67.179 171.172 0 138.777 112.862 251.667 251.598 251.667 138.74 0 251.612-112.89 251.612-251.667zM442.048 473.628c0 7.956-3.162 15.587-8.788 21.212s-13.256 8.788-21.212 8.788h-0.050c-5.93-0.012-11.726-1.781-16.651-5.083-4.928-3.305-8.763-7.993-11.025-13.476s-2.849-11.512-1.685-17.327c1.164-5.818 4.025-11.158 8.223-15.348s9.545-7.041 15.36-8.195c5.818-1.151 11.847-0.555 17.327 1.716 5.477 2.275 10.159 6.119 13.455 11.050 3.292 4.934 5.052 10.73 5.052 16.663h-0.006zM542.003 473.628c0 0.981-0.056 1.964-0.158 2.939-0.096 0.981-0.242 1.955-0.438 2.92-0.18 0.962-0.422 1.911-0.723 2.839-0.279 0.94-0.618 1.862-0.977 2.78-0.36 0.922-0.801 1.781-1.26 2.641-0.456 0.866-0.959 1.707-1.502 2.52-0.546 0.822-1.133 1.617-1.759 2.38-0.618 0.766-1.278 1.493-1.98 2.181-0.68 0.698-1.418 1.359-2.178 1.998-0.763 0.602-1.564 1.201-2.383 1.741-0.813 0.543-1.654 1.043-2.52 1.499-0.86 0.462-1.759 0.881-2.659 1.263-0.903 0.375-1.821 0.704-2.759 0.977-1.871 0.602-3.804 0.99-5.759 1.161-2.939 0.282-5.902 0.143-8.8-0.419-0.965-0.199-1.921-0.444-2.858-0.742-0.94-0.273-1.862-0.602-2.762-0.977-0.9-0.382-1.8-0.801-2.659-1.263-0.86-0.459-1.7-0.959-2.523-1.499s-1.62-1.139-2.358-1.741c-0.779-0.639-1.499-1.3-2.2-1.998-0.701-0.689-1.362-1.415-1.98-2.181-0.621-0.763-1.201-1.558-1.741-2.38-0.549-0.813-1.055-1.654-1.517-2.52-0.462-0.856-0.878-1.738-1.244-2.641-0.379-0.909-0.714-1.837-0.999-2.78-0.279-0.918-0.518-1.877-0.717-2.839-0.199-0.965-0.348-1.939-0.444-2.92s-0.14-1.958-0.14-2.939c0-0.981 0.043-1.98 0.14-2.96 0.099-0.974 0.245-1.942 0.444-2.901s0.438-1.918 0.717-2.858c0.285-0.937 0.621-1.859 0.999-2.762 0.366-0.909 0.782-1.797 1.244-2.659 0.456-0.86 0.977-1.7 1.517-2.52 0.54-0.816 1.12-1.604 1.741-2.361 0.621-0.766 1.285-1.499 1.98-2.2 0.701-0.68 1.421-1.359 2.2-1.98 0.754-0.624 1.539-1.204 2.358-1.741 0.822-0.54 1.66-1.058 2.523-1.517 1.738-0.906 3.55-1.657 5.421-2.24 0.937-0.279 1.896-0.521 2.858-0.72 1.927-0.394 3.891-0.59 5.859-0.58 7.947 0.022 15.565 3.174 21.2 8.778 1.384 1.406 2.634 2.929 3.739 4.561 0.54 0.819 1.043 1.66 1.502 2.52s0.878 1.759 1.26 2.659c0.379 0.9 0.698 1.84 0.977 2.762 0.298 0.937 0.54 1.893 0.723 2.858 0.195 0.959 0.341 1.927 0.438 2.901 0.102 0.984 0.152 1.974 0.152 2.963l0.006-0.003zM642.005 473.628c0 7.956-3.162 15.587-8.788 21.212s-13.256 8.788-21.212 8.788h-0.059c-5.93-0.012-11.723-1.781-16.651-5.086-4.925-3.302-8.763-7.99-11.022-13.473-2.262-5.483-2.849-11.515-1.685-17.33s4.025-11.155 8.223-15.344c4.198-4.189 9.545-7.041 15.363-8.195 5.818-1.151 11.847-0.555 17.324 1.719 5.48 2.271 10.159 6.116 13.455 11.047 3.292 4.934 5.052 10.73 5.052 16.663z" />
</font>
</defs>
</svg>
